openmeetings-commits mailing list archives

Site index · List index
Message view « Date » · « Thread »
Top « Date » · « Thread »
From "Maxim Solodovnik (JIRA)" <j...@apache.org>
Subject [jira] [Updated] (OPENMEETINGS-934) screenrecording without sound
Date Thu, 06 Mar 2014 13:24:43 GMT

     [ https://issues.apache.org/jira/browse/OPENMEETINGS-934?page=com.atlassian.jira.plugin.system.issuetabpanels:all-tabpanel ]

Maxim Solodovnik updated OPENMEETINGS-934:
------------------------------------------

    Fix Version/s: 3.0.1
                   3.1.0

> screenrecording without sound
> -----------------------------
>
>                 Key: OPENMEETINGS-934
>                 URL: https://issues.apache.org/jira/browse/OPENMEETINGS-934
>             Project: Openmeetings
>          Issue Type: Bug
>          Components: Screen-sharing
>    Affects Versions: 3.0.0
>         Environment: Ubuntu-Server 64 Bit OM3.0 RC2, FFMPEG 2.1 (also tried 0.11.x, 1.3.x)
> Client 1: W7, Browser IE 11, FF 27.0.1, Chrome 33.0.1750.146m, Flash 12.0.070
> Client 2: Linux Mint 13, Browser Chrome 33.0.1750.146, 12.0.0.70 (Pepper Flash)
>            Reporter: Peter Dähn
>            Assignee: Maxim Solodovnik
>             Fix For: 3.1.0, 3.0.1
>
>
> - I go into a room
> - start audio/video settings
> - choose device and make testrecords (i can hear myself and soundindecator flashes)
> - start screenrecording (also checked flash settings for the device)
> - finish record, 
> - record can be find under  recordings
> - start play record - no sound at all
> - download file and play it with external player - also no sound
> same at http://demo.dataved.ru:5080/openmeetings
> tested various times with linux and windows with several browser
> I got once a working record with W7 and IE11 from my testserver
> one result from dataved.ru
> Exit value	Conversion messages
> 1
> process: stripAudioFromFLVs
> command: ffmpeg -async 1 -i /opt/openmeetings-3.0.0.r1573575/webapps/openmeetings/streams/4/rec_228_stream_239_2014_03_06_14_00_06.flv /opt/openmeetings-3.0.0.r1573575/webapps/openmeetings/streams/4/rec_228_stream_239_2014_03_06_14_00_06_WAVE.wav 
> exception: null
> error: ffmpeg version git-2013-10-22-c68faca Copyright (c) 2000-2013 the FFmpeg developers
>   built on Oct 22 2013 12:58:25 with gcc 4.6 (Ubuntu/Linaro 4.6.3-1ubuntu5)
>   configuration: --prefix=/root/ffmpeg_build --extra-cflags=-I/root/ffmpeg_build/include --extra-ldflags=-L/root/ffmpeg_build/lib --bindir=/root/bin --extra-libs=-ldl --enable-gpl --enable-libass --enable-libfdk-aac --enable-libmp3lame --enable-libopus --enable-libtheora --enable-libvorbis --enable-libvpx --enable-libx264 --enable-nonfree --enable-x11grab
>   libavutil      52. 47.101 / 52. 47.101
>   libavcodec     55. 37.102 / 55. 37.102
>   libavformat    55. 19.103 / 55. 19.103
>   libavdevice    55.  4.100 / 55.  4.100
>   libavfilter     3. 89.100 /  3. 89.100
>   libswscale      2.  5.101 /  2.  5.101
>   libswresample   0. 17.104 /  0. 17.104
>   libpostproc    52.  3.100 / 52.  3.100
> [flv @ 0x272e880] Broken FLV file, which says no streams present, this might fail
> [flv @ 0x272e880] Could not find codec parameters for stream 0 (Video: none): unspecified size
> Consider increasing the value for the 'analyzeduration' and 'probesize' options
> [flv @ 0x272e880] Could not find codec parameters for stream 1 (Audio: none, 0 channels): unspecified sample format
> Consider increasing the value for the 'analyzeduration' and 'probesize' options
> /opt/openmeetings-3.0.0.r1573575/webapps/openmeetings/streams/4/rec_228_stream_239_2014_03_06_14_00_06.flv: could not find codec parameters
> exitValue: null
> out: 
> 0
> process: generateSampleAudio
> command: sox /opt/openmeetings-3.0.0.r1573575/webapps/openmeetings/streams/hibernate/one_second.wav /opt/openmeetings-3.0.0.r1573575/webapps/openmeetings/streams/4/rec_228_stream_0942e1faa5bc172d808744a6bf7d9028_2014_03_06_14_00_07_FINAL_WAVE.wav pad 0 34.159 
> exception: null
> error: 
> exitValue: null
> out: 
> 0
> process: generateFullFLV
> command: ffmpeg -itsoffset 00:00:00.997 -i /opt/openmeetings-3.0.0.r1573575/webapps/openmeetings/streams/4/rec_228_stream_0942e1faa5bc172d808744a6bf7d9028_2014_03_06_14_00_07.flv -i /opt/openmeetings-3.0.0.r1573575/webapps/openmeetings/streams/4/rec_228_stream_0942e1faa5bc172d808744a6bf7d9028_2014_03_06_14_00_07_FINAL_WAVE.wav -ar 22050 -acodec libmp3lame -ab 32k -s 1200x672 -vcodec flashsv -map 0:0 -map 1:0 /opt/openmeetings-3.0.0.r1573575/webapps/openmeetings/streams/hibernate/flvRecording_228.flv 
> exception: null
> error: ffmpeg version git-2013-10-22-c68faca Copyright (c) 2000-2013 the FFmpeg developers
>   built on Oct 22 2013 12:58:25 with gcc 4.6 (Ubuntu/Linaro 4.6.3-1ubuntu5)
>   configuration: --prefix=/root/ffmpeg_build --extra-cflags=-I/root/ffmpeg_build/include --extra-ldflags=-L/root/ffmpeg_build/lib --bindir=/root/bin --extra-libs=-ldl --enable-gpl --enable-libass --enable-libfdk-aac --enable-libmp3lame --enable-libopus --enable-libtheora --enable-libvorbis --enable-libvpx --enable-libx264 --enable-nonfree --enable-x11grab
>   libavutil      52. 47.101 / 52. 47.101
>   libavcodec     55. 37.102 / 55. 37.102
>   libavformat    55. 19.103 / 55. 19.103
>   libavdevice    55.  4.100 / 55.  4.100
>   libavfilter     3. 89.100 /  3. 89.100
>   libswscale      2.  5.101 /  2.  5.101
>   libswresample   0. 17.104 /  0. 17.104
>   libpostproc    52.  3.100 / 52.  3.100
> Input #0, flv, from '/opt/openmeetings-3.0.0.r1573575/webapps/openmeetings/streams/4/rec_228_stream_0942e1faa5bc172d808744a6bf7d9028_2014_03_06_14_00_07.flv':
>   Metadata:
>     noaudiocodec    : 0
>     server          : Red5 Server 1.0.0 RC3 Rev: 4393
>     creationdate    : Thu Mar 06 14:00:41 CET 2014
>     canSeekToEnd    : true
>   Duration: 00:00:32.50, start: 0.000000, bitrate: 880 kb/s
>     Stream #0:0: Video: flashsv, bgr24, 1200x675, 879 kb/s, 10 tbr, 1k tbn, 1k tbc
> Guessed Channel Layout for  Input Stream #1.0 : mono
> Input #1, wav, from '/opt/openmeetings-3.0.0.r1573575/webapps/openmeetings/streams/4/rec_228_stream_0942e1faa5bc172d808744a6bf7d9028_2014_03_06_14_00_07_FINAL_WAVE.wav':
>   Duration: 00:00:35.16, bitrate: 705 kb/s
>     Stream #1:0: Audio: pcm_s16le ([1][0][0][0] / 0x0001), 44100 Hz, mono, s16, 705 kb/s
> Output #0, flv, to '/opt/openmeetings-3.0.0.r1573575/webapps/openmeetings/streams/hibernate/flvRecording_228.flv':
>   Metadata:
>     noaudiocodec    : 0
>     server          : Red5 Server 1.0.0 RC3 Rev: 4393
>     creationdate    : Thu Mar 06 14:00:41 CET 2014
>     canSeekToEnd    : true
>     encoder         : Lavf55.19.103
>     Stream #0:0: Video: flashsv ([3][0][0][0] / 0x0003), bgr24, 1200x672, q=2-31, 200 kb/s, 1k tbn, 10 tbc
>     Stream #0:1: Audio: mp3 (libmp3lame) ([2][0][0][0] / 0x0002), 22050 Hz, mono, s16p, 32 kb/s
> Stream mapping:
>   Stream #0:0 -> #0:0 (flashsv -> flashsv)
>   Stream #1:0 -> #0:1 (pcm_s16le -> libmp3lame)
> Press [q] to stop, [?] for help
> [flashsv @ 0x362bd60] Frame width or height differs from first frame!
> [flashsv @ 0x362bd60] fh = 675, fv 1200  vs  ch = 900, cv = 1600
> Error while decoding stream #0:0: Invalid data found when processing input
> [flashsv @ 0x362bd60] Frame width or height differs from first frame!
> [flashsv @ 0x362bd60] fh = 675, fv 1200  vs  ch = 900, cv = 1600
> Error while decoding stream #0:0: Invalid data found when processing input
> [flashsv @ 0x362bd60] Frame width or height differs from first frame!
> [flashsv @ 0x362bd60] fh = 675, fv 1200  vs  ch = 900, cv = 1600
> Error while decoding stream #0:0: Invalid data found when processing input
> [flashsv @ 0x362bd60] Frame width or height differs from first frame!
> [flashsv @ 0x362bd60] fh = 675, fv 1200  vs  ch = 900, cv = 1600
> Error while decoding stream #0:0: Invalid data found when processing input
> [flashsv @ 0x362bd60] Frame width or height differs from first frame!
> [flashsv @ 0x362bd60] fh = 675, fv 1200  vs  ch = 900, cv = 1600
> Error while decoding stream #0:0: Invalid data found when processing input
> [flashsv @ 0x362bd60] Frame width or height differs from first frame!
> [flashsv @ 0x362bd60] fh = 675, fv 1200  vs  ch = 900, cv = 1600
> Error while decoding stream #0:0: Invalid data found when processing input
> [flashsv @ 0x362bd60] Frame width or height differs from first frame!
> [flashsv @ 0x362bd60] fh = 675, fv 1200  vs  ch = 900, cv = 1600
> Error while decoding stream #0:0: Invalid data found when processing input
> [flashsv @ 0x362bd60] Frame width or height differs from first frame!
> [flashsv @ 0x362bd60] fh = 675, fv 1200  vs  ch = 900, cv = 1600
> Error while decoding stream #0:0: Invalid data found when processing input
> [flashsv @ 0x362bd60] Frame width or height differs from first frame!
> [flashsv @ 0x362bd60] fh = 675, fv 1200  vs  ch = 900, cv = 1600
> Error while decoding stream #0:0: Invalid data found when processing input
> [flashsv @ 0x362bd60] Frame width or height differs from first frame!
> [flashsv @ 0x362bd60] fh = 675, fv 1200  vs  ch = 900, cv = 1600
> Error while decoding stream #0:0: Invalid data found when processing input
> [flashsv @ 0x362bd60] Frame width or height differs from first frame!
> [flashsv @ 0x362bd60] fh = 675, fv 1200  vs  ch = 900, cv = 1600
> Error while decoding stream #0:0: Invalid data found when processing input
> [flashsv @ 0x362bd60] Frame width or height differs from first frame!
> [flashsv @ 0x362bd60] fh = 675, fv 1200  vs  ch = 900, cv = 1600
> Error while decoding stream #0:0: Invalid data found when processing input
> [flashsv @ 0x362bd60] Frame width or height differs from first frame!
> [flashsv @ 0x362bd60] fh = 675, fv 1200  vs  ch = 900, cv = 1600
> Error while decoding stream #0:0: Invalid data found when processing input
> [flashsv @ 0x362bd60] Frame width or height differs from first frame!
> [flashsv @ 0x362bd60] fh = 675, fv 1200  vs  ch = 900, cv = 1600
> Error while decoding stream #0:0: Invalid data found when processing input
> [flashsv @ 0x362bd60] Frame width or height differs from first frame!
> [flashsv @ 0x362bd60] fh = 675, fv 1200  vs  ch = 900, cv = 1600
> Error while decoding stream #0:0: Invalid data found when processing input
> [flashsv @ 0x362bd60] Frame width or height differs from first frame!
> [flashsv @ 0x362bd60] fh = 675, fv 1200  vs  ch = 900, cv = 1600
> Error while decoding stream #0:0: Invalid data found when processing input
> [flashsv @ 0x362bd60] Frame width or height differs from first frame!
> [flashsv @ 0x362bd60] fh = 675, fv 1200  vs  ch = 900, cv = 1600
> Error while decoding stream #0:0: Invalid data found when processing input
> [flashsv @ 0x362bd60] Frame width or height differs from first frame!
> [flashsv @ 0x362bd60] fh = 675, fv 1200  vs  ch = 900, cv = 1600
> Error while decoding stream #0:0: Invalid data found when processing input
> [flashsv @ 0x362bd60] Frame width or height differs from first frame!
> [flashsv @ 0x362bd60] fh = 675, fv 1200  vs  ch = 900, cv = 1600
> Error while decoding stream #0:0: Invalid data found when processing input
> [flashsv @ 0x362bd60] Frame width or height differs from first frame!
> [flashsv @ 0x362bd60] fh = 675, fv 1200  vs  ch = 900, cv = 1600
> Error while decoding stream #0:0: Invalid data found when processing input
> [flashsv @ 0x362bd60] Frame width or height differs from first frame!
> [flashsv @ 0x362bd60] fh = 675, fv 1200  vs  ch = 900, cv = 1600
> Error while decoding stream #0:0: Invalid data found when processing input
> [flashsv @ 0x362bd60] Frame width or height differs from first frame!
> [flashsv @ 0x362bd60] fh = 675, fv 1200  vs  ch = 900, cv = 1600
> Error while decoding stream #0:0: Invalid data found when processing input
> [flashsv @ 0x362bd60] Frame width or height differs from first frame!
> [flashsv @ 0x362bd60] fh = 675, fv 1200  vs  ch = 900, cv = 1600
> Error while decoding stream #0:0: Invalid data found when processing input
> [flashsv @ 0x362bd60] Frame width or height differs from first frame!
> [flashsv @ 0x362bd60] fh = 675, fv 1200  vs  ch = 900, cv = 1600
> Error while decoding stream #0:0: Invalid data found when processing input
> [flashsv @ 0x362bd60] Frame width or height differs from first frame!
> [flashsv @ 0x362bd60] fh = 675, fv 1200  vs  ch = 900, cv = 1600
> Error while decoding stream #0:0: Invalid data found when processing input
> [flashsv @ 0x362bd60] Frame width or height differs from first frame!
> [flashsv @ 0x362bd60] fh = 675, fv 1200  vs  ch = 900, cv = 1600
> Error while decoding stream #0:0: Invalid data found when processing input
> [flashsv @ 0x362bd60] Frame width or height differs from first frame!
> [flashsv @ 0x362bd60] fh = 675, fv 1200  vs  ch = 900, cv = 1600
> Error while decoding stream #0:0: Invalid data found when processing input
> [flashsv @ 0x362bd60] Frame width or height differs from first frame!
> [flashsv @ 0x362bd60] fh = 675, fv 1200  vs  ch = 900, cv = 1600
> Error while decoding stream #0:0: Invalid data found when processing input
> [flashsv @ 0x362bd60] Frame width or height differs from first frame!
> [flashsv @ 0x362bd60] fh = 675, fv 1200  vs  ch = 900, cv = 1600
> Error while decoding stream #0:0: Invalid data found when processing input
> [flashsv @ 0x362bd60] Frame width or height differs from first frame!
> [flashsv @ 0x362bd60] fh = 675, fv 1200  vs  ch = 900, cv = 1600
> Error while decoding stream #0:0: Invalid data found when processing input
> [flashsv @ 0x362bd60] Frame width or height differs from first frame!
> [flashsv @ 0x362bd60] fh = 675, fv 1200  vs  ch = 900, cv = 1600
> Error while decoding stream #0:0: Invalid data found when processing input
> frame=   20 fps=0.0 q=0.0 size=     588kB time=00:00:06.10 bitrate= 789.7kbits/s    
> [flashsv @ 0x362bd60] Frame width or height differs from first frame!
> [flashsv @ 0x362bd60] fh = 675, fv 1200  vs  ch = 900, cv = 1600
> Error while decoding stream #0:0: Invalid data found when processing input
> [flashsv @ 0x362bd60] Frame width or height differs from first frame!
> [flashsv @ 0x362bd60] fh = 675, fv 1200  vs  ch = 900, cv = 1600
> Error while decoding stream #0:0: Invalid data found when processing input
> [flashsv @ 0x362bd60] Frame width or height differs from first frame!
> [flashsv @ 0x362bd60] fh = 675, fv 1200  vs  ch = 900, cv = 1600
> Error while decoding stream #0:0: Invalid data found when processing input
> [flashsv @ 0x362bd60] Frame width or height differs from first frame!
> [flashsv @ 0x362bd60] fh = 675, fv 1200  vs  ch = 900, cv = 1600
> Error while decoding stream #0:0: Invalid data found when processing input
> [flashsv @ 0x362bd60] Frame width or height differs from first frame!
> [flashsv @ 0x362bd60] fh = 675, fv 1200  vs  ch = 900, cv = 1600
> Error while decoding stream #0:0: Invalid data found when processing input
> [flashsv @ 0x362bd60] Frame width or height differs from first frame!
> [flashsv @ 0x362bd60] fh = 675, fv 1200  vs  ch = 900, cv = 1600
> Error while decoding stream #0:0: Invalid data found when processing input
> [flashsv @ 0x362bd60] Frame width or height differs from first frame!
> [flashsv @ 0x362bd60] fh = 675, fv 1200  vs  ch = 900, cv = 1600
> Error while decoding stream #0:0: Invalid data found when processing input
> [flashsv @ 0x362bd60] Frame width or height differs from first frame!
> [flashsv @ 0x362bd60] fh = 675, fv 1200  vs  ch = 900, cv = 1600
> Error while decoding stream #0:0: Invalid data found when processing input
> [flashsv @ 0x362bd60] Frame width or height differs from first frame!
> [flashsv @ 0x362bd60] fh = 675, fv 1200  vs  ch = 900, cv = 1600
> Error while decoding stream #0:0: Invalid data found when processing input
> [flashsv @ 0x362bd60] Frame width or height differs from first frame!
> [flashsv @ 0x362bd60] fh = 675, fv 1200  vs  ch = 900, cv = 1600
> Error while decoding stream #0:0: Invalid data found when processing input
> [flashsv @ 0x362bd60] Frame width or height differs from first frame!
> [flashsv @ 0x362bd60] fh = 675, fv 1200  vs  ch = 900, cv = 1600
> Error while decoding stream #0:0: Invalid data found when processing input
> [flashsv @ 0x362bd60] Frame width or height differs from first frame!
> [flashsv @ 0x362bd60] fh = 675, fv 1200  vs  ch = 900, cv = 1600
> Error while decoding stream #0:0: Invalid data found when processing input
> [flashsv @ 0x362bd60] Frame width or height differs from first frame!
> [flashsv @ 0x362bd60] fh = 675, fv 1200  vs  ch = 900, cv = 1600
> Error while decoding stream #0:0: Invalid data found when processing input
> [flashsv @ 0x362bd60] Frame width or height differs from first frame!
> [flashsv @ 0x362bd60] fh = 675, fv 1200  vs  ch = 900, cv = 1600
> Error while decoding stream #0:0: Invalid data found when processing input
> [flashsv @ 0x362bd60] Frame width or height differs from first frame!
> [flashsv @ 0x362bd60] fh = 675, fv 1200  vs  ch = 900, cv = 1600
> Error while decoding stream #0:0: Invalid data found when processing input
> [flashsv @ 0x362bd60] Frame width or height differs from first frame!
> [flashsv @ 0x362bd60] fh = 675, fv 1200  vs  ch = 900, cv = 1600
> Error while decoding stream #0:0: Invalid data found when processing input
> [flashsv @ 0x362bd60] Frame width or height differs from first frame!
> [flashsv @ 0x362bd60] fh = 675, fv 1200  vs  ch = 900, cv = 1600
> Error while decoding stream #0:0: Invalid data found when processing input
> [flashsv @ 0x362bd60] Frame width or height differs from first frame!
> [flashsv @ 0x362bd60] fh = 675, fv 1200  vs  ch = 900, cv = 1600
> Error while decoding stream #0:0: Invalid data found when processing input
> [flashsv @ 0x362bd60] Frame width or height differs from first frame!
> [flashsv @ 0x362bd60] fh = 675, fv 1200  vs  ch = 900, cv = 1600
> Error while decoding stream #0:0: Invalid data found when processing input
> [flashsv @ 0x362bd60] Frame width or height differs from first frame!
> [flashsv @ 0x362bd60] fh = 675, fv 1200  vs  ch = 900, cv = 1600
> Error while decoding stream #0:0: Invalid data found when processing input
> [flashsv @ 0x362bd60] Frame width or height differs from first frame!
> [flashsv @ 0x362bd60] fh = 675, fv 1200  vs  ch = 900, cv = 1600
> Error while decoding stream #0:0: Invalid data found when processing input
> [flashsv @ 0x362bd60] Frame width or height differs from first frame!
> [flashsv @ 0x362bd60] fh = 675, fv 1200  vs  ch = 900, cv = 1600
> Error while decoding stream #0:0: Invalid data found when processing input
> [flashsv @ 0x362bd60] Frame width or height differs from first frame!
> [flashsv @ 0x362bd60] fh = 675, fv 1200  vs  ch = 900, cv = 1600
> Error while decoding stream #0:0: Invalid data found when processing input
> [flashsv @ 0x362bd60] Frame width or height differs from first frame!
> [flashsv @ 0x362bd60] fh = 675, fv 1200  vs  ch = 900, cv = 1600
> Error while decoding stream #0:0: Invalid data found when processing input
> [flashsv @ 0x362bd60] Frame width or height differs from first frame!
> [flashsv @ 0x362bd60] fh = 675, fv 1200  vs  ch = 900, cv = 1600
> Error while decoding stream #0:0: Invalid data found when processing input
> [flashsv @ 0x362bd60] Frame width or height differs from first frame!
> [flashsv @ 0x362bd60] fh = 675, fv 1200  vs  ch = 900, cv = 1600
> Error while decoding stream #0:0: Invalid data found when processing input
> [flashsv @ 0x362bd60] Frame width or height differs from first frame!
> [flashsv @ 0x362bd60] fh = 675, fv 1200  vs  ch = 900, cv = 1600
> Error while decoding stream #0:0: Invalid data found when processing input
> [flashsv @ 0x362bd60] Frame width or height differs from first frame!
> [flashsv @ 0x362bd60] fh = 675, fv 1200  vs  ch = 900, cv = 1600
> Error while decoding stream #0:0: Invalid data found when processing input
> [flashsv @ 0x362bd60] Frame width or height differs from first frame!
> [flashsv @ 0x362bd60] fh = 675, fv 1200  vs  ch = 900, cv = 1600
> Error while decoding stream #0:0: Invalid data found when processing input
> [flashsv @ 0x362bd60] Frame width or height differs from first frame!
> [flashsv @ 0x362bd60] fh = 675, fv 1200  vs  ch = 900, cv = 1600
> Error while decoding stream #0:0: Invalid data found when processing input
> [flashsv @ 0x362bd60] Frame width or height differs from first frame!
> [flashsv @ 0x362bd60] fh = 675, fv 1200  vs  ch = 900, cv = 1600
> Error while decoding stream #0:0: Invalid data found when processing input
> [flashsv @ 0x362bd60] Frame width or height differs from first frame!
> [flashsv @ 0x362bd60] fh = 675, fv 1200  vs  ch = 900, cv = 1600
> Error while decoding stream #0:0: Invalid data found when processing input
> [flashsv @ 0x362bd60] Frame width or height differs from first frame!
> [flashsv @ 0x362bd60] fh = 675, fv 1200  vs  ch = 900, cv = 1600
> Error while decoding stream #0:0: Invalid data found when processing input
> [flashsv @ 0x362bd60] Frame width or height differs from first frame!
> [flashsv @ 0x362bd60] fh = 675, fv 1200  vs  ch = 900, cv = 1600
> Error while decoding stream #0:0: Invalid data found when processing input
> [flashsv @ 0x362bd60] Frame width or height differs from first frame!
> [flashsv @ 0x362bd60] fh = 675, fv 1200  vs  ch = 900, cv = 1600
> Error while decoding stream #0:0: Invalid data found when processing input
> frame=   40 fps= 39 q=0.0 size=    1028kB time=00:00:11.60 bitrate= 725.6kbits/s    
> [flashsv @ 0x362bd60] Frame width or height differs from first frame!
> [flashsv @ 0x362bd60] fh = 675, fv 1200  vs  ch = 900, cv = 1600
> Error while decoding stream #0:0: Invalid data found when processing input
> [flashsv @ 0x362bd60] Frame width or height differs from first frame!
> [flashsv @ 0x362bd60] fh = 675, fv 1200  vs  ch = 900, cv = 1600
> Error while decoding stream #0:0: Invalid data found when processing input
> [flashsv @ 0x362bd60] Frame width or height differs from first frame!
> [flashsv @ 0x362bd60] fh = 675, fv 1200  vs  ch = 900, cv = 1600
> Error while decoding stream #0:0: Invalid data found when processing input
> [flashsv @ 0x362bd60] Frame width or height differs from first frame!
> [flashsv @ 0x362bd60] fh = 675, fv 1200  vs  ch = 900, cv = 1600
> Error while decoding stream #0:0: Invalid data found when processing input
> [flashsv @ 0x362bd60] Frame width or height differs from first frame!
> [flashsv @ 0x362bd60] fh = 675, fv 1200  vs  ch = 900, cv = 1600
> Error while decoding stream #0:0: Invalid data found when processing input
> [flashsv @ 0x362bd60] Frame width or height differs from first frame!
> [flashsv @ 0x362bd60] fh = 675, fv 1200  vs  ch = 900, cv = 1600
> Error while decoding stream #0:0: Invalid data found when processing input
> [flashsv @ 0x362bd60] Frame width or height differs from first frame!
> [flashsv @ 0x362bd60] fh = 675, fv 1200  vs  ch = 900, cv = 1600
> Error while decoding stream #0:0: Invalid data found when processing input
> [flashsv @ 0x362bd60] Frame width or height differs from first frame!
> [flashsv @ 0x362bd60] fh = 675, fv 1200  vs  ch = 900, cv = 1600
> Error while decoding stream #0:0: Invalid data found when processing input
> [flashsv @ 0x362bd60] Frame width or height differs from first frame!
> [flashsv @ 0x362bd60] fh = 675, fv 1200  vs  ch = 900, cv = 1600
> Error while decoding stream #0:0: Invalid data found when processing input
> [flashsv @ 0x362bd60] Frame width or height differs from first frame!
> [flashsv @ 0x362bd60] fh = 675, fv 1200  vs  ch = 900, cv = 1600
> Error while decoding stream #0:0: Invalid data found when processing input
> [flashsv @ 0x362bd60] Frame width or height differs from first frame!
> [flashsv @ 0x362bd60] fh = 675, fv 1200  vs  ch = 900, cv = 1600
> Error while decoding stream #0:0: Invalid data found when processing input
> [flashsv @ 0x362bd60] Frame width or height differs from first frame!
> [flashsv @ 0x362bd60] fh = 675, fv 1200  vs  ch = 900, cv = 1600
> Error while decoding stream #0:0: Invalid data found when processing input
> [flashsv @ 0x362bd60] Frame width or height differs from first frame!
> [flashsv @ 0x362bd60] fh = 675, fv 1200  vs  ch = 900, cv = 1600
> Error while decoding stream #0:0: Invalid data found when processing input
> [flashsv @ 0x362bd60] Frame width or height differs from first frame!
> [flashsv @ 0x362bd60] fh = 675, fv 1200  vs  ch = 900, cv = 1600
> Error while decoding stream #0:0: Invalid data found when processing input
> [flashsv @ 0x362bd60] Frame width or height differs from first frame!
> [flashsv @ 0x362bd60] fh = 675, fv 1200  vs  ch = 900, cv = 1600
> Error while decoding stream #0:0: Invalid data found when processing input
> [flashsv @ 0x362bd60] Frame width or height differs from first frame!
> [flashsv @ 0x362bd60] fh = 675, fv 1200  vs  ch = 900, cv = 1600
> Error while decoding stream #0:0: Invalid data found when processing input
> [flashsv @ 0x362bd60] Frame width or height differs from first frame!
> [flashsv @ 0x362bd60] fh = 675, fv 1200  vs  ch = 900, cv = 1600
> Error while decoding stream #0:0: Invalid data found when processing input
> [flashsv @ 0x362bd60] Frame width or height differs from first frame!
> [flashsv @ 0x362bd60] fh = 675, fv 1200  vs  ch = 900, cv = 1600
> Error while decoding stream #0:0: Invalid data found when processing input
> [flashsv @ 0x362bd60] Frame width or height differs from first frame!
> [flashsv @ 0x362bd60] fh = 675, fv 1200  vs  ch = 900, cv = 1600
> Error while decoding stream #0:0: Invalid data found when processing input
> [flashsv @ 0x362bd60] Frame width or height differs from first frame!
> [flashsv @ 0x362bd60] fh = 675, fv 1200  vs  ch = 900, cv = 1600
> Error while decoding stream #0:0: Invalid data found when processing input
> [flashsv @ 0x362bd60] Frame width or height differs from first frame!
> [flashsv @ 0x362bd60] fh = 675, fv 1200  vs  ch = 900, cv = 1600
> Error while decoding stream #0:0: Invalid data found when processing input
> [flashsv @ 0x362bd60] Frame width or height differs from first frame!
> [flashsv @ 0x362bd60] fh = 675, fv 1200  vs  ch = 900, cv = 1600
> Error while decoding stream #0:0: Invalid data found when processing input
> [flashsv @ 0x362bd60] Frame width or height differs from first frame!
> [flashsv @ 0x362bd60] fh = 675, fv 1200  vs  ch = 900, cv = 1600
> Error while decoding stream #0:0: Invalid data found when processing input
> [flashsv @ 0x362bd60] Frame width or height differs from first frame!
> [flashsv @ 0x362bd60] fh = 675, fv 1200  vs  ch = 900, cv = 1600
> Error while decoding stream #0:0: Invalid data found when processing input
> [flashsv @ 0x362bd60] Frame width or height differs from first frame!
> [flashsv @ 0x362bd60] fh = 675, fv 1200  vs  ch = 900, cv = 1600
> Error while decoding stream #0:0: Invalid data found when processing input
> [flashsv @ 0x362bd60] Frame width or height differs from first frame!
> [flashsv @ 0x362bd60] fh = 675, fv 1200  vs  ch = 900, cv = 1600
> Error while decoding stream #0:0: Invalid data found when processing input
> [flashsv @ 0x362bd60] Frame width or height differs from first frame!
> [flashsv @ 0x362bd60] fh = 675, fv 1200  vs  ch = 900, cv = 1600
> Error while decoding stream #0:0: Invalid data found when processing input
> [flashsv @ 0x362bd60] Frame width or height differs from first frame!
> [flashsv @ 0x362bd60] fh = 675, fv 1200  vs  ch = 900, cv = 1600
> Error while decoding stream #0:0: Invalid data found when processing input
> [flashsv @ 0x362bd60] Frame width or height differs from first frame!
> [flashsv @ 0x362bd60] fh = 675, fv 1200  vs  ch = 900, cv = 1600
> Error while decoding stream #0:0: Invalid data found when processing input
> [flashsv @ 0x362bd60] Frame width or height differs from first frame!
> [flashsv @ 0x362bd60] fh = 675, fv 1200  vs  ch = 900, cv = 1600
> Error while decoding stream #0:0: Invalid data found when processing input
> [flashsv @ 0x362bd60] Frame width or height differs from first frame!
> [flashsv @ 0x362bd60] fh = 675, fv 1200  vs  ch = 900, cv = 1600
> Error while decoding stream #0:0: Invalid data found when processing input
> [flashsv @ 0x362bd60] Frame width or height differs from first frame!
> [flashsv @ 0x362bd60] fh = 675, fv 1200  vs  ch = 900, cv = 1600
> Error while decoding stream #0:0: Invalid data found when processing input
> [flashsv @ 0x362bd60] Frame width or height differs from first frame!
> [flashsv @ 0x362bd60] fh = 675, fv 1200  vs  ch = 900, cv = 1600
> Error while decoding stream #0:0: Invalid data found when processing input
> [flashsv @ 0x362bd60] Frame width or height differs from first frame!
> [flashsv @ 0x362bd60] fh = 675, fv 1200  vs  ch = 900, cv = 1600
> Error while decoding stream #0:0: Invalid data found when processing input
> [flashsv @ 0x362bd60] Frame width or height differs from first frame!
> [flashsv @ 0x362bd60] fh = 675, fv 1200  vs  ch = 900, cv = 1600
> Error while decoding stream #0:0: Invalid data found when processing input
> [flashsv @ 0x362bd60] Frame width or height differs from first frame!
> [flashsv @ 0x362bd60] fh = 675, fv 1200  vs  ch = 900, cv = 1600
> Error while decoding stream #0:0: Invalid data found when processing input
> [flashsv @ 0x362bd60] Frame width or height differs from first frame!
> [flashsv @ 0x362bd60] fh = 675, fv 1200  vs  ch = 900, cv = 1600
> Error while decoding stream #0:0: Invalid data found when processing input
> frame=   61 fps= 39 q=0.0 size=    1298kB time=00:00:17.40 bitrate= 611.0kbits/s    
> [flashsv @ 0x362bd60] Frame width or height differs from first frame!
> [flashsv @ 0x362bd60] fh = 675, fv 1200  vs  ch = 900, cv = 1600
> Error while decoding stream #0:0: Invalid data found when processing input
> [flashsv @ 0x362bd60] Frame width or height differs from first frame!
> [flashsv @ 0x362bd60] fh = 675, fv 1200  vs  ch = 900, cv = 1600
> Error while decoding stream #0:0: Invalid data found when processing input
> [flashsv @ 0x362bd60] Frame width or height differs from first frame!
> [flashsv @ 0x362bd60] fh = 675, fv 1200  vs  ch = 900, cv = 1600
> Error while decoding stream #0:0: Invalid data found when processing input
> [flashsv @ 0x362bd60] Frame width or height differs from first frame!
> [flashsv @ 0x362bd60] fh = 675, fv 1200  vs  ch = 900, cv = 1600
> Error while decoding stream #0:0: Invalid data found when processing input
> [flashsv @ 0x362bd60] Frame width or height differs from first frame!
> [flashsv @ 0x362bd60] fh = 675, fv 1200  vs  ch = 900, cv = 1600
> Error while decoding stream #0:0: Invalid data found when processing input
> [flashsv @ 0x362bd60] Frame width or height differs from first frame!
> [flashsv @ 0x362bd60] fh = 675, fv 1200  vs  ch = 900, cv = 1600
> Error while decoding stream #0:0: Invalid data found when processing input
> [flashsv @ 0x362bd60] Frame width or height differs from first frame!
> [flashsv @ 0x362bd60] fh = 675, fv 1200  vs  ch = 900, cv = 1600
> Error while decoding stream #0:0: Invalid data found when processing input
> [flashsv @ 0x362bd60] Frame width or height differs from first frame!
> [flashsv @ 0x362bd60] fh = 675, fv 1200  vs  ch = 900, cv = 1600
> Error while decoding stream #0:0: Invalid data found when processing input
> [flashsv @ 0x362bd60] Frame width or height differs from first frame!
> [flashsv @ 0x362bd60] fh = 675, fv 1200  vs  ch = 900, cv = 1600
> Error while decoding stream #0:0: Invalid data found when processing input
> [flashsv @ 0x362bd60] Frame width or height differs from first frame!
> [flashsv @ 0x362bd60] fh = 675, fv 1200  vs  ch = 900, cv = 1600
> Error while decoding stream #0:0: Invalid data found when processing input
> [flashsv @ 0x362bd60] Frame width or height differs from first frame!
> [flashsv @ 0x362bd60] fh = 675, fv 1200  vs  ch = 900, cv = 1600
> Error while decoding stream #0:0: Invalid data found when processing input
> [flashsv @ 0x362bd60] Frame width or height differs from first frame!
> [flashsv @ 0x362bd60] fh = 675, fv 1200  vs  ch = 900, cv = 1600
> Error while decoding stream #0:0: Invalid data found when processing input
> [flashsv @ 0x362bd60] Frame width or height differs from first frame!
> [flashsv @ 0x362bd60] fh = 675, fv 1200  vs  ch = 900, cv = 1600
> Error while decoding stream #0:0: Invalid data found when processing input
> [flashsv @ 0x362bd60] Frame width or height differs from first frame!
> [flashsv @ 0x362bd60] fh = 675, fv 1200  vs  ch = 900, cv = 1600
> Error while decoding stream #0:0: Invalid data found when processing input
> [flashsv @ 0x362bd60] Frame width or height differs from first frame!
> [flashsv @ 0x362bd60] fh = 675, fv 1200  vs  ch = 900, cv = 1600
> Error while decoding stream #0:0: Invalid data found when processing input
> [flashsv @ 0x362bd60] Frame width or height differs from first frame!
> [flashsv @ 0x362bd60] fh = 675, fv 1200  vs  ch = 900, cv = 1600
> Error while decoding stream #0:0: Invalid data found when processing input
> [flashsv @ 0x362bd60] Frame width or height differs from first frame!
> [flashsv @ 0x362bd60] fh = 675, fv 1200  vs  ch = 900, cv = 1600
> Error while decoding stream #0:0: Invalid data found when processing input
> [flashsv @ 0x362bd60] Frame width or height differs from first frame!
> [flashsv @ 0x362bd60] fh = 675, fv 1200  vs  ch = 900, cv = 1600
> Error while decoding stream #0:0: Invalid data found when processing input
> [flashsv @ 0x362bd60] Frame width or height differs from first frame!
> [flashsv @ 0x362bd60] fh = 675, fv 1200  vs  ch = 900, cv = 1600
> Error while decoding stream #0:0: Invalid data found when processing input
> [flashsv @ 0x362bd60] Frame width or height differs from first frame!
> [flashsv @ 0x362bd60] fh = 675, fv 1200  vs  ch = 900, cv = 1600
> Error while decoding stream #0:0: Invalid data found when processing input
> [flashsv @ 0x362bd60] Frame width or height differs from first frame!
> [flashsv @ 0x362bd60] fh = 675, fv 1200  vs  ch = 900, cv = 1600
> Error while decoding stream #0:0: Invalid data found when processing input
> [flashsv @ 0x362bd60] Frame width or height differs from first frame!
> [flashsv @ 0x362bd60] fh = 675, fv 1200  vs  ch = 900, cv = 1600
> Error while decoding stream #0:0: Invalid data found when processing input
> [flashsv @ 0x362bd60] Frame width or height differs from first frame!
> [flashsv @ 0x362bd60] fh = 675, fv 1200  vs  ch = 900, cv = 1600
> Error while decoding stream #0:0: Invalid data found when processing input
> [flashsv @ 0x362bd60] Frame width or height differs from first frame!
> [flashsv @ 0x362bd60] fh = 675, fv 1200  vs  ch = 900, cv = 1600
> Error while decoding stream #0:0: Invalid data found when processing input
> [flashsv @ 0x362bd60] Frame width or height differs from first frame!
> [flashsv @ 0x362bd60] fh = 675, fv 1200  vs  ch = 900, cv = 1600
> Error while decoding stream #0:0: Invalid data found when processing input
> [flashsv @ 0x362bd60] Frame width or height differs from first frame!
> [flashsv @ 0x362bd60] fh = 675, fv 1200  vs  ch = 900, cv = 1600
> Error while decoding stream #0:0: Invalid data found when processing input
> [flashsv @ 0x362bd60] Frame width or height differs from first frame!
> [flashsv @ 0x362bd60] fh = 675, fv 1200  vs  ch = 900, cv = 1600
> Error while decoding stream #0:0: Invalid data found when processing input
> [flashsv @ 0x362bd60] Frame width or height differs from first frame!
> [flashsv @ 0x362bd60] fh = 675, fv 1200  vs  ch = 900, cv = 1600
> Error while decoding stream #0:0: Invalid data found when processing input
> [flashsv @ 0x362bd60] Frame width or height differs from first frame!
> [flashsv @ 0x362bd60] fh = 675, fv 1200  vs  ch = 900, cv = 1600
> Error while decoding stream #0:0: Invalid data found when processing input
> [flashsv @ 0x362bd60] Frame width or height differs from first frame!
> [flashsv @ 0x362bd60] fh = 675, fv 1200  vs  ch = 900, cv = 1600
> Error while decoding stream #0:0: Invalid data found when processing input
> [flashsv @ 0x362bd60] Frame width or height differs from first frame!
> [flashsv @ 0x362bd60] fh = 675, fv 1200  vs  ch = 900, cv = 1600
> Error while decoding stream #0:0: Invalid data found when processing input
> [flashsv @ 0x362bd60] Frame width or height differs from first frame!
> [flashsv @ 0x362bd60] fh = 675, fv 1200  vs  ch = 900, cv = 1600
> Error while decoding stream #0:0: Invalid data found when processing input
> [flashsv @ 0x362bd60] Frame width or height differs from first frame!
> [flashsv @ 0x362bd60] fh = 675, fv 1200  vs  ch = 900, cv = 1600
> Error while decoding stream #0:0: Invalid data found when processing input
> [flashsv @ 0x362bd60] Frame width or height differs from first frame!
> [flashsv @ 0x362bd60] fh = 675, fv 1200  vs  ch = 900, cv = 1600
> Error while decoding stream #0:0: Invalid data found when processing input
> [flashsv @ 0x362bd60] Frame width or height differs from first frame!
> [flashsv @ 0x362bd60] fh = 675, fv 1200  vs  ch = 900, cv = 1600
> Error while decoding stream #0:0: Invalid data found when processing input
> [flashsv @ 0x362bd60] Frame width or height differs from first frame!
> [flashsv @ 0x362bd60] fh = 675, fv 1200  vs  ch = 900, cv = 1600
> Error while decoding stream #0:0: Invalid data found when processing input
> [flashsv @ 0x362bd60] Frame width or height differs from first frame!
> [flashsv @ 0x362bd60] fh = 675, fv 1200  vs  ch = 900, cv = 1600
> Error while decoding stream #0:0: Invalid data found when processing input
> [flashsv @ 0x362bd60] Frame width or height differs from first frame!
> [flashsv @ 0x362bd60] fh = 675, fv 1200  vs  ch = 900, cv = 1600
> Error while decoding stream #0:0: Invalid data found when processing input
> frame=   82 fps= 40 q=0.0 size=    1770kB time=00:00:23.30 bitrate= 622.5kbits/s    
> [flashsv @ 0x362bd60] Frame width or height differs from first frame!
> [flashsv @ 0x362bd60] fh = 675, fv 1200  vs  ch = 900, cv = 1600
> Error while decoding stream #0:0: Invalid data found when processing input
> [flashsv @ 0x362bd60] Frame width or height differs from first frame!
> [flashsv @ 0x362bd60] fh = 675, fv 1200  vs  ch = 900, cv = 1600
> Error while decoding stream #0:0: Invalid data found when processing input
> [flashsv @ 0x362bd60] Frame width or height differs from first frame!
> [flashsv @ 0x362bd60] fh = 675, fv 1200  vs  ch = 900, cv = 1600
> Error while decoding stream #0:0: Invalid data found when processing input
> [flashsv @ 0x362bd60] Frame width or height differs from first frame!
> [flashsv @ 0x362bd60] fh = 675, fv 1200  vs  ch = 900, cv = 1600
> Error while decoding stream #0:0: Invalid data found when processing input
> [flashsv @ 0x362bd60] Frame width or height differs from first frame!
> [flashsv @ 0x362bd60] fh = 675, fv 1200  vs  ch = 900, cv = 1600
> Error while decoding stream #0:0: Invalid data found when processing input
> [flashsv @ 0x362bd60] Frame width or height differs from first frame!
> [flashsv @ 0x362bd60] fh = 675, fv 1200  vs  ch = 900, cv = 1600
> Error while decoding stream #0:0: Invalid data found when processing input
> [flashsv @ 0x362bd60] Frame width or height differs from first frame!
> [flashsv @ 0x362bd60] fh = 675, fv 1200  vs  ch = 900, cv = 1600
> Error while decoding stream #0:0: Invalid data found when processing input
> [flashsv @ 0x362bd60] Frame width or height differs from first frame!
> [flashsv @ 0x362bd60] fh = 675, fv 1200  vs  ch = 900, cv = 1600
> Error while decoding stream #0:0: Invalid data found when processing input
> [flashsv @ 0x362bd60] Frame width or height differs from first frame!
> [flashsv @ 0x362bd60] fh = 675, fv 1200  vs  ch = 900, cv = 1600
> Error while decoding stream #0:0: Invalid data found when processing input
> [flashsv @ 0x362bd60] Frame width or height differs from first frame!
> [flashsv @ 0x362bd60] fh = 675, fv 1200  vs  ch = 900, cv = 1600
> Error while decoding stream #0:0: Invalid data found when processing input
> [flashsv @ 0x362bd60] Frame width or height differs from first frame!
> [flashsv @ 0x362bd60] fh = 675, fv 1200  vs  ch = 900, cv = 1600
> Error while decoding stream #0:0: Invalid data found when processing input
> [flashsv @ 0x362bd60] Frame width or height differs from first frame!
> [flashsv @ 0x362bd60] fh = 675, fv 1200  vs  ch = 900, cv = 1600
> Error while decoding stream #0:0: Invalid data found when processing input
> [flashsv @ 0x362bd60] Frame width or height differs from first frame!
> [flashsv @ 0x362bd60] fh = 675, fv 1200  vs  ch = 900, cv = 1600
> Error while decoding stream #0:0: Invalid data found when processing input
> [flashsv @ 0x362bd60] Frame width or height differs from first frame!
> [flashsv @ 0x362bd60] fh = 675, fv 1200  vs  ch = 900, cv = 1600
> Error while decoding stream #0:0: Invalid data found when processing input
> [flashsv @ 0x362bd60] Frame width or height differs from first frame!
> [flashsv @ 0x362bd60] fh = 675, fv 1200  vs  ch = 900, cv = 1600
> Error while decoding stream #0:0: Invalid data found when processing input
> [flashsv @ 0x362bd60] Frame width or height differs from first frame!
> [flashsv @ 0x362bd60] fh = 675, fv 1200  vs  ch = 900, cv = 1600
> Error while decoding stream #0:0: Invalid data found when processing input
> [flashsv @ 0x362bd60] Frame width or height differs from first frame!
> [flashsv @ 0x362bd60] fh = 675, fv 1200  vs  ch = 900, cv = 1600
> Error while decoding stream #0:0: Invalid data found when processing input
> [flashsv @ 0x362bd60] Frame width or height differs from first frame!
> [flashsv @ 0x362bd60] fh = 675, fv 1200  vs  ch = 900, cv = 1600
> Error while decoding stream #0:0: Invalid data found when processing input
> [flashsv @ 0x362bd60] Frame width or height differs from first frame!
> [flashsv @ 0x362bd60] fh = 675, fv 1200  vs  ch = 900, cv = 1600
> Error while decoding stream #0:0: Invalid data found when processing input
> [flashsv @ 0x362bd60] Frame width or height differs from first frame!
> [flashsv @ 0x362bd60] fh = 675, fv 1200  vs  ch = 900, cv = 1600
> Error while decoding stream #0:0: Invalid data found when processing input
> [flashsv @ 0x362bd60] Frame width or height differs from first frame!
> [flashsv @ 0x362bd60] fh = 675, fv 1200  vs  ch = 900, cv = 1600
> Error while decoding stream #0:0: Invalid data found when processing input
> [flashsv @ 0x362bd60] Frame width or height differs from first frame!
> [flashsv @ 0x362bd60] fh = 675, fv 1200  vs  ch = 900, cv = 1600
> Error while decoding stream #0:0: Invalid data found when processing input
> [flashsv @ 0x362bd60] Frame width or height differs from first frame!
> [flashsv @ 0x362bd60] fh = 675, fv 1200  vs  ch = 900, cv = 1600
> Error while decoding stream #0:0: Invalid data found when processing input
> [flashsv @ 0x362bd60] Frame width or height differs from first frame!
> [flashsv @ 0x362bd60] fh = 675, fv 1200  vs  ch = 900, cv = 1600
> Error while decoding stream #0:0: Invalid data found when processing input
> [flashsv @ 0x362bd60] Frame width or height differs from first frame!
> [flashsv @ 0x362bd60] fh = 675, fv 1200  vs  ch = 900, cv = 1600
> Error while decoding stream #0:0: Invalid data found when processing input
> [flashsv @ 0x362bd60] Frame width or height differs from first frame!
> [flashsv @ 0x362bd60] fh = 675, fv 1200  vs  ch = 900, cv = 1600
> Error while decoding stream #0:0: Invalid data found when processing input
> [flashsv @ 0x362bd60] Frame width or height differs from first frame!
> [flashsv @ 0x362bd60] fh = 675, fv 1200  vs  ch = 900, cv = 1600
> Error while decoding stream #0:0: Invalid data found when processing input
> [flashsv @ 0x362bd60] Frame width or height differs from first frame!
> [flashsv @ 0x362bd60] fh = 675, fv 1200  vs  ch = 900, cv = 1600
> Error while decoding stream #0:0: Invalid data found when processing input
> [flashsv @ 0x362bd60] Frame width or height differs from first frame!
> [flashsv @ 0x362bd60] fh = 675, fv 1200  vs  ch = 900, cv = 1600
> Error while decoding stream #0:0: Invalid data found when processing input
> [flashsv @ 0x362bd60] Frame width or height differs from first frame!
> [flashsv @ 0x362bd60] fh = 675, fv 1200  vs  ch = 900, cv = 1600
> Error while decoding stream #0:0: Invalid data found when processing input
> [flashsv @ 0x362bd60] Frame width or height differs from first frame!
> [flashsv @ 0x362bd60] fh = 675, fv 1200  vs  ch = 900, cv = 1600
> Error while decoding stream #0:0: Invalid data found when processing input
> [flashsv @ 0x362bd60] Frame width or height differs from first frame!
> [flashsv @ 0x362bd60] fh = 675, fv 1200  vs  ch = 900, cv = 1600
> Error while decoding stream #0:0: Invalid data found when processing input
> [flashsv @ 0x362bd60] Frame width or height differs from first frame!
> [flashsv @ 0x362bd60] fh = 675, fv 1200  vs  ch = 900, cv = 1600
> Error while decoding stream #0:0: Invalid data found when processing input
> [flashsv @ 0x362bd60] Frame width or height differs from first frame!
> [flashsv @ 0x362bd60] fh = 675, fv 1200  vs  ch = 900, cv = 1600
> Error while decoding stream #0:0: Invalid data found when processing input
> frame=  101 fps= 39 q=0.0 size=    2242kB time=00:00:28.60 bitrate= 642.1kbits/s    
> [flashsv @ 0x362bd60] Frame width or height differs from first frame!
> [flashsv @ 0x362bd60] fh = 675, fv 1200  vs  ch = 900, cv = 1600
> Error while decoding stream #0:0: Invalid data found when processing input
> [flashsv @ 0x362bd60] Frame width or height differs from first frame!
> [flashsv @ 0x362bd60] fh = 675, fv 1200  vs  ch = 900, cv = 1600
> Error while decoding stream #0:0: Invalid data found when processing input
> [flashsv @ 0x362bd60] Frame width or height differs from first frame!
> [flashsv @ 0x362bd60] fh = 675, fv 1200  vs  ch = 900, cv = 1600
> Error while decoding stream #0:0: Invalid data found when processing input
> [flashsv @ 0x362bd60] Frame width or height differs from first frame!
> [flashsv @ 0x362bd60] fh = 675, fv 1200  vs  ch = 900, cv = 1600
> Error while decoding stream #0:0: Invalid data found when processing input
> [flashsv @ 0x362bd60] Frame width or height differs from first frame!
> [flashsv @ 0x362bd60] fh = 675, fv 1200  vs  ch = 900, cv = 1600
> Error while decoding stream #0:0: Invalid data found when processing input
> [flashsv @ 0x362bd60] Frame width or height differs from first frame!
> [flashsv @ 0x362bd60] fh = 675, fv 1200  vs  ch = 900, cv = 1600
> Error while decoding stream #0:0: Invalid data found when processing input
> [flashsv @ 0x362bd60] Frame width or height differs from first frame!
> [flashsv @ 0x362bd60] fh = 675, fv 1200  vs  ch = 900, cv = 1600
> Error while decoding stream #0:0: Invalid data found when processing input
> [flashsv @ 0x362bd60] Frame width or height differs from first frame!
> [flashsv @ 0x362bd60] fh = 675, fv 1200  vs  ch = 900, cv = 1600
> Error while decoding stream #0:0: Invalid data found when processing input
> [flashsv @ 0x362bd60] Frame width or height differs from first frame!
> [flashsv @ 0x362bd60] fh = 675, fv 1200  vs  ch = 900, cv = 1600
> Error while decoding stream #0:0: Invalid data found when processing input
> [flashsv @ 0x362bd60] Frame width or height differs from first frame!
> [flashsv @ 0x362bd60] fh = 675, fv 1200  vs  ch = 900, cv = 1600
> Error while decoding stream #0:0: Invalid data found when processing input
> [flashsv @ 0x362bd60] Frame width or height differs from first frame!
> [flashsv @ 0x362bd60] fh = 675, fv 1200  vs  ch = 900, cv = 1600
> Error while decoding stream #0:0: Invalid data found when processing input
> [flashsv @ 0x362bd60] Frame width or height differs from first frame!
> [flashsv @ 0x362bd60] fh = 675, fv 1200  vs  ch = 900, cv = 1600
> Error while decoding stream #0:0: Invalid data found when processing input
> [flashsv @ 0x362bd60] Frame width or height differs from first frame!
> [flashsv @ 0x362bd60] fh = 675, fv 1200  vs  ch = 900, cv = 1600
> Error while decoding stream #0:0: Invalid data found when processing input
> [flashsv @ 0x362bd60] Frame width or height differs from first frame!
> [flashsv @ 0x362bd60] fh = 675, fv 1200  vs  ch = 900, cv = 1600
> Error while decoding stream #0:0: Invalid data found when processing input
> [flashsv @ 0x362bd60] Frame width or height differs from first frame!
> [flashsv @ 0x362bd60] fh = 675, fv 1200  vs  ch = 900, cv = 1600
> Error while decoding stream #0:0: Invalid data found when processing input
> [flashsv @ 0x362bd60] Frame width or height differs from first frame!
> [flashsv @ 0x362bd60] fh = 675, fv 1200  vs  ch = 900, cv = 1600
> Error while decoding stream #0:0: Invalid data found when processing input
> [flashsv @ 0x362bd60] Frame width or height differs from first frame!
> [flashsv @ 0x362bd60] fh = 675, fv 1200  vs  ch = 900, cv = 1600
> Error while decoding stream #0:0: Invalid data found when processing input
> [flashsv @ 0x362bd60] Frame width or height differs from first frame!
> [flashsv @ 0x362bd60] fh = 675, fv 1200  vs  ch = 900, cv = 1600
> Error while decoding stream #0:0: Invalid data found when processing input
> [flashsv @ 0x362bd60] Frame width or height differs from first frame!
> [flashsv @ 0x362bd60] fh = 675, fv 1200  vs  ch = 900, cv = 1600
> Error while decoding stream #0:0: Invalid data found when processing input
> [flashsv @ 0x362bd60] Frame width or height differs from first frame!
> [flashsv @ 0x362bd60] fh = 675, fv 1200  vs  ch = 900, cv = 1600
> Error while decoding stream #0:0: Invalid data found when processing input
> [flashsv @ 0x362bd60] Frame width or height differs from first frame!
> [flashsv @ 0x362bd60] fh = 675, fv 1200  vs  ch = 900, cv = 1600
> Error while decoding stream #0:0: Invalid data found when processing input
> [flashsv @ 0x362bd60] Frame width or height differs from first frame!
> [flashsv @ 0x362bd60] fh = 675, fv 1200  vs  ch = 900, cv = 1600
> Error while decoding stream #0:0: Invalid data found when processing input
> [flashsv @ 0x362bd60] Frame width or height differs from first frame!
> [flashsv @ 0x362bd60] fh = 675, fv 1200  vs  ch = 900, cv = 1600
> Error while decoding stream #0:0: Invalid data found when processing input
> [flashsv @ 0x362bd60] Frame width or height differs from first frame!
> [flashsv @ 0x362bd60] fh = 675, fv 1200  vs  ch = 900, cv = 1600
> Error while decoding stream #0:0: Invalid data found when processing input
> [flashsv @ 0x362bd60] Frame width or height differs from first frame!
> [flashsv @ 0x362bd60] fh = 675, fv 1200  vs  ch = 900, cv = 1600
> Error while decoding stream #0:0: Invalid data found when processing input
> [flashsv @ 0x362bd60] Frame width or height differs from first frame!
> [flashsv @ 0x362bd60] fh = 675, fv 1200  vs  ch = 900, cv = 1600
> Error while decoding stream #0:0: Invalid data found when processing input
> [flashsv @ 0x362bd60] Frame width or height differs from first frame!
> [flashsv @ 0x362bd60] fh = 675, fv 1200  vs  ch = 900, cv = 1600
> Error while decoding stream #0:0: Invalid data found when processing input
> [flashsv @ 0x362bd60] Frame width or height differs from first frame!
> [flashsv @ 0x362bd60] fh = 675, fv 1200  vs  ch = 900, cv = 1600
> Error while decoding stream #0:0: Invalid data found when processing input
> [flashsv @ 0x362bd60] Frame width or height differs from first frame!
> [flashsv @ 0x362bd60] fh = 675, fv 1200  vs  ch = 900, cv = 1600
> Error while decoding stream #0:0: Invalid data found when processing input
> [flashsv @ 0x362bd60] Frame width or height differs from first frame!
> [flashsv @ 0x362bd60] fh = 675, fv 1200  vs  ch = 900, cv = 1600
> Error while decoding stream #0:0: Invalid data found when processing input
> [flashsv @ 0x362bd60] Frame width or height differs from first frame!
> [flashsv @ 0x362bd60] fh = 675, fv 1200  vs  ch = 900, cv = 1600
> Error while decoding stream #0:0: Invalid data found when processing input
> [flashsv @ 0x362bd60] Frame width or height differs from first frame!
> [flashsv @ 0x362bd60] fh = 675, fv 1200  vs  ch = 900, cv = 1600
> Error while decoding stream #0:0: Invalid data found when processing input
> frame=  119 fps= 39 q=0.0 Lsize=    2799kB time=00:00:35.16 bitrate= 652.1kbits/s    
> video:2638kB audio:138kB subtitle:0 global headers:0kB muxing overhead 0.841571%
> exitValue: null
> out: 
> 0
> process: previewFullFLV
> command: ffmpeg -i /opt/openmeetings-3.0.0.r1573575/webapps/openmeetings/streams/hibernate/flvRecording_228.flv -vcodec mjpeg -vframes 1 -an -f rawvideo -s 1200x672 /opt/openmeetings-3.0.0.r1573575/webapps/openmeetings/streams/hibernate/flvRecording_228.jpg 
> exception: null
> error: ffmpeg version git-2013-10-22-c68faca Copyright (c) 2000-2013 the FFmpeg developers
>   built on Oct 22 2013 12:58:25 with gcc 4.6 (Ubuntu/Linaro 4.6.3-1ubuntu5)
>   configuration: --prefix=/root/ffmpeg_build --extra-cflags=-I/root/ffmpeg_build/include --extra-ldflags=-L/root/ffmpeg_build/lib --bindir=/root/bin --extra-libs=-ldl --enable-gpl --enable-libass --enable-libfdk-aac --enable-libmp3lame --enable-libopus --enable-libtheora --enable-libvorbis --enable-libvpx --enable-libx264 --enable-nonfree --enable-x11grab
>   libavutil      52. 47.101 / 52. 47.101
>   libavcodec     55. 37.102 / 55. 37.102
>   libavformat    55. 19.103 / 55. 19.103
>   libavdevice    55.  4.100 / 55.  4.100
>   libavfilter     3. 89.100 /  3. 89.100
>   libswscale      2.  5.101 /  2.  5.101
>   libswresample   0. 17.104 /  0. 17.104
>   libpostproc    52.  3.100 / 52.  3.100
> Input #0, flv, from '/opt/openmeetings-3.0.0.r1573575/webapps/openmeetings/streams/hibernate/flvRecording_228.flv':
>   Metadata:
>     noaudiocodec    : 0
>     server          : Red5 Server 1.0.0 RC3 Rev: 4393
>     creationdate    : Thu Mar 06 14:00:41 CET 2014
>     canSeekToEnd    : true
>     encoder         : Lavf55.19.103
>   Duration: 00:00:35.21, start: 0.000000, bitrate: 651 kb/s
>     Stream #0:0: Video: flashsv, bgr24, 1200x672, 200 kb/s, 10 tbr, 1k tbn, 1k tbc
>     Stream #0:1: Audio: mp3, 22050 Hz, mono, s16p, 32 kb/s
> [swscaler @ 0x25ca040] deprecated pixel format used, make sure you did set range correctly
> Output #0, rawvideo, to '/opt/openmeetings-3.0.0.r1573575/webapps/openmeetings/streams/hibernate/flvRecording_228.jpg':
>   Metadata:
>     noaudiocodec    : 0
>     server          : Red5 Server 1.0.0 RC3 Rev: 4393
>     creationdate    : Thu Mar 06 14:00:41 CET 2014
>     canSeekToEnd    : true
>     encoder         : Lavf55.19.103
>     Stream #0:0: Video: mjpeg, yuvj444p, 1200x672, q=2-31, 200 kb/s, 90k tbn, 10 tbc
> Stream mapping:
>   Stream #0:0 -> #0:0 (flashsv -> mjpeg)
> Press [q] to stop, [?] for help
> frame=    1 fps=0.0 q=0.0 Lsize=      80kB time=00:00:00.10 bitrate=6516.3kbits/s    
> video:80kB audio:0kB subtitle:0 global headers:0kB muxing overhead 0.000000%
> exitValue: null
> out: 
> 0
> process: alternateDownload
> command: ffmpeg -i /opt/openmeetings-3.0.0.r1573575/webapps/openmeetings/streams/hibernate/flvRecording_228.flv -vcodec copy /opt/openmeetings-3.0.0.r1573575/webapps/openmeetings/streams/hibernate/flvRecording_228.avi 
> exception: null
> error: ffmpeg version git-2013-10-22-c68faca Copyright (c) 2000-2013 the FFmpeg developers
>   built on Oct 22 2013 12:58:25 with gcc 4.6 (Ubuntu/Linaro 4.6.3-1ubuntu5)
>   configuration: --prefix=/root/ffmpeg_build --extra-cflags=-I/root/ffmpeg_build/include --extra-ldflags=-L/root/ffmpeg_build/lib --bindir=/root/bin --extra-libs=-ldl --enable-gpl --enable-libass --enable-libfdk-aac --enable-libmp3lame --enable-libopus --enable-libtheora --enable-libvorbis --enable-libvpx --enable-libx264 --enable-nonfree --enable-x11grab
>   libavutil      52. 47.101 / 52. 47.101
>   libavcodec     55. 37.102 / 55. 37.102
>   libavformat    55. 19.103 / 55. 19.103
>   libavdevice    55.  4.100 / 55.  4.100
>   libavfilter     3. 89.100 /  3. 89.100
>   libswscale      2.  5.101 /  2.  5.101
>   libswresample   0. 17.104 /  0. 17.104
>   libpostproc    52.  3.100 / 52.  3.100
> Input #0, flv, from '/opt/openmeetings-3.0.0.r1573575/webapps/openmeetings/streams/hibernate/flvRecording_228.flv':
>   Metadata:
>     noaudiocodec    : 0
>     server          : Red5 Server 1.0.0 RC3 Rev: 4393
>     creationdate    : Thu Mar 06 14:00:41 CET 2014
>     canSeekToEnd    : true
>     encoder         : Lavf55.19.103
>   Duration: 00:00:35.21, start: 0.000000, bitrate: 651 kb/s
>     Stream #0:0: Video: flashsv, bgr24, 1200x672, 200 kb/s, 10 tbr, 1k tbn, 1k tbc
>     Stream #0:1: Audio: mp3, 22050 Hz, mono, s16p, 32 kb/s
> Output #0, avi, to '/opt/openmeetings-3.0.0.r1573575/webapps/openmeetings/streams/hibernate/flvRecording_228.avi':
>   Metadata:
>     noaudiocodec    : 0
>     server          : Red5 Server 1.0.0 RC3 Rev: 4393
>     creationdate    : Thu Mar 06 14:00:41 CET 2014
>     canSeekToEnd    : true
>     ISFT            : Lavf55.19.103
>     Stream #0:0: Video: flashsv (FSV1 / 0x31565346), bgr24, 1200x672, q=2-31, 200 kb/s, 1k tbn, 1k tbc
>     Stream #0:1: Audio: mp3 (libmp3lame) (U[0][0][0] / 0x0055), 22050 Hz, mono, s16p
> Stream mapping:
>   Stream #0:0 -> #0:0 (copy)
>   Stream #0:1 -> #0:1 (mp3 -> libmp3lame)
> Press [q] to stop, [?] for help
> frame=  119 fps=0.0 q=-1.0 Lsize=    3601kB time=00:00:35.21 bitrate= 837.7kbits/s    
> video:2638kB audio:138kB subtitle:0 global headers:0kB muxing overhead 29.718751%
> exitValue: null
> out: 
> 0
> process: generate MP4
> command: ffmpeg -i /opt/openmeetings-3.0.0.r1573575/webapps/openmeetings/streams/hibernate/flvRecording_228.flv -c:v libx264 -crf 24 -pix_fmt yuv420p -preset medium -profile:v baseline -c:a libfaac -c:a libfdk_aac -b:a 32k -s 1200x672 /opt/openmeetings-3.0.0.r1573575/webapps/openmeetings/streams/hibernate/flvRecording_228.flv.mp4 
> exception: null
> error: ffmpeg version git-2013-10-22-c68faca Copyright (c) 2000-2013 the FFmpeg developers
>   built on Oct 22 2013 12:58:25 with gcc 4.6 (Ubuntu/Linaro 4.6.3-1ubuntu5)
>   configuration: --prefix=/root/ffmpeg_build --extra-cflags=-I/root/ffmpeg_build/include --extra-ldflags=-L/root/ffmpeg_build/lib --bindir=/root/bin --extra-libs=-ldl --enable-gpl --enable-libass --enable-libfdk-aac --enable-libmp3lame --enable-libopus --enable-libtheora --enable-libvorbis --enable-libvpx --enable-libx264 --enable-nonfree --enable-x11grab
>   libavutil      52. 47.101 / 52. 47.101
>   libavcodec     55. 37.102 / 55. 37.102
>   libavformat    55. 19.103 / 55. 19.103
>   libavdevice    55.  4.100 / 55.  4.100
>   libavfilter     3. 89.100 /  3. 89.100
>   libswscale      2.  5.101 /  2.  5.101
>   libswresample   0. 17.104 /  0. 17.104
>   libpostproc    52.  3.100 / 52.  3.100
> Input #0, flv, from '/opt/openmeetings-3.0.0.r1573575/webapps/openmeetings/streams/hibernate/flvRecording_228.flv':
>   Metadata:
>     noaudiocodec    : 0
>     server          : Red5 Server 1.0.0 RC3 Rev: 4393
>     creationdate    : Thu Mar 06 14:00:41 CET 2014
>     canSeekToEnd    : true
>     encoder         : Lavf55.19.103
>   Duration: 00:00:35.21, start: 0.000000, bitrate: 651 kb/s
>     Stream #0:0: Video: flashsv, bgr24, 1200x672, 200 kb/s, 10 tbr, 1k tbn, 1k tbc
>     Stream #0:1: Audio: mp3, 22050 Hz, mono, s16p, 32 kb/s
> [libx264 @ 0x2d33e80] using cpu capabilities: MMX2 SSE2Fast SSSE3 SSE4.2
> [libx264 @ 0x2d33e80] profile Constrained Baseline, level 3.1
> [libx264 @ 0x2d33e80] 264 - core 138 r2 9e941d1 - H.264/MPEG-4 AVC codec - Copyleft 2003-2013 - http://www.videolan.org/x264.html - options: cabac=0 ref=3 deblock=1:0:0 analyse=0x1:0x111 me=hex subme=7 psy=1 psy_rd=1.00:0.00 mixed_ref=1 me_range=16 chroma_me=1 trellis=1 8x8dct=0 cqm=0 deadzone=21,11 fast_pskip=1 chroma_qp_offset=-2 threads=12 lookahead_threads=2 sliced_threads=0 nr=0 decimate=1 interlaced=0 bluray_compat=0 constrained_intra=0 bframes=0 weightp=0 keyint=250 keyint_min=10 scenecut=40 intra_refresh=0 rc_lookahead=40 rc=crf mbtree=1 crf=24.0 qcomp=0.60 qpmin=0 qpmax=69 qpstep=4 ip_ratio=1.40 aq=1:1.00
> Output #0, mp4, to '/opt/openmeetings-3.0.0.r1573575/webapps/openmeetings/streams/hibernate/flvRecording_228.flv.mp4':
>   Metadata:
>     noaudiocodec    : 0
>     server          : Red5 Server 1.0.0 RC3 Rev: 4393
>     creationdate    : Thu Mar 06 14:00:41 CET 2014
>     canSeekToEnd    : true
>     encoder         : Lavf55.19.103
>     Stream #0:0: Video: h264 (libx264) ([33][0][0][0] / 0x0021), yuv420p, 1200x672, q=-1--1, 10240 tbn, 10 tbc
>     Stream #0:1: Audio: aac (libfdk_aac) ([64][0][0][0] / 0x0040), 22050 Hz, mono, s16, 32 kb/s
> Stream mapping:
>   Stream #0:0 -> #0:0 (flashsv -> libx264)
>   Stream #0:1 -> #0:1 (mp3 -> libfdk_aac)
> Press [q] to stop, [?] for help
> frame=  154 fps=0.0 q=26.0 size=     116kB time=00:00:15.18 bitrate=  62.7kbits/s dup=101 drop=0    
> frame=  300 fps=296 q=26.0 size=     198kB time=00:00:29.76 bitrate=  54.5kbits/s dup=194 drop=0    
> frame=  335 fps=263 q=-1.0 Lsize=     351kB time=00:00:35.24 bitrate=  81.5kbits/s dup=216 drop=0    
> video:203kB audio:138kB subtitle:0 global headers:0kB muxing overhead 2.750755%
> [libx264 @ 0x2d33e80] frame I:2     Avg QP:11.77  size: 54435
> [libx264 @ 0x2d33e80] frame P:333   Avg QP:19.33  size:   296
> [libx264 @ 0x2d33e80] mb I  I16..4: 75.2%  0.0% 24.8%
> [libx264 @ 0x2d33e80] mb P  I16..4:  0.1%  0.0%  0.1%  P16..4:  0.4%  0.0%  0.0%  0.0%  0.0%    skip:99.4%
> [libx264 @ 0x2d33e80] coded y,uvDC,uvAC intra: 23.9% 31.4% 27.0% inter: 0.0% 0.3% 0.0%
> [libx264 @ 0x2d33e80] i16 v,h,dc,p: 73% 26%  0%  0%
> [libx264 @ 0x2d33e80] i4 v,h,dc,ddl,ddr,vr,hd,vl,hu: 25% 44% 13%  2%  3%  3%  4%  2%  3%
> [libx264 @ 0x2d33e80] i8c dc,h,v,p: 59% 31%  9%  1%
> [libx264 @ 0x2d33e80] ref P L0: 93.6%  3.6%  2.8%
> [libx264 @ 0x2d33e80] kb/s:49.52
> exitValue: null
> out: 
> 0
> process: generate OGG
> command: ffmpeg -i /opt/openmeetings-3.0.0.r1573575/webapps/openmeetings/streams/hibernate/flvRecording_228.flv.mp4 -vcodec libtheora -acodec libvorbis /opt/openmeetings-3.0.0.r1573575/webapps/openmeetings/streams/hibernate/flvRecording_228.flv.ogg 
> exception: null
> error: ffmpeg version git-2013-10-22-c68faca Copyright (c) 2000-2013 the FFmpeg developers
>   built on Oct 22 2013 12:58:25 with gcc 4.6 (Ubuntu/Linaro 4.6.3-1ubuntu5)
>   configuration: --prefix=/root/ffmpeg_build --extra-cflags=-I/root/ffmpeg_build/include --extra-ldflags=-L/root/ffmpeg_build/lib --bindir=/root/bin --extra-libs=-ldl --enable-gpl --enable-libass --enable-libfdk-aac --enable-libmp3lame --enable-libopus --enable-libtheora --enable-libvorbis --enable-libvpx --enable-libx264 --enable-nonfree --enable-x11grab
>   libavutil      52. 47.101 / 52. 47.101
>   libavcodec     55. 37.102 / 55. 37.102
>   libavformat    55. 19.103 / 55. 19.103
>   libavdevice    55.  4.100 / 55.  4.100
>   libavfilter     3. 89.100 /  3. 89.100
>   libswscale      2.  5.101 /  2.  5.101
>   libswresample   0. 17.104 /  0. 17.104
>   libpostproc    52.  3.100 / 52.  3.100
> Input #0, mov,mp4,m4a,3gp,3g2,mj2, from '/opt/openmeetings-3.0.0.r1573575/webapps/openmeetings/streams/hibernate/flvRecording_228.flv.mp4':
>   Metadata:
>     major_brand     : isom
>     minor_version   : 512
>     compatible_brands: isomiso2avc1mp41
>     encoder         : Lavf55.19.103
>   Duration: 00:00:35.31, start: 0.092880, bitrate: 81 kb/s
>     Stream #0:0(und): Video: h264 (Constrained Baseline) (avc1 / 0x31637661), yuv420p, 1200x672, 49 kb/s, 10 fps, 10 tbr, 10240 tbn, 20 tbc (default)
>     Metadata:
>       handler_name    : VideoHandler
>     Stream #0:1(und): Audio: aac (mp4a / 0x6134706D), 22050 Hz, mono, fltp, 32 kb/s (default)
>     Metadata:
>       handler_name    : SoundHandler
> Output #0, ogg, to '/opt/openmeetings-3.0.0.r1573575/webapps/openmeetings/streams/hibernate/flvRecording_228.flv.ogg':
>   Metadata:
>     major_brand     : isom
>     minor_version   : 512
>     compatible_brands: isomiso2avc1mp41
>     encoder         : Lavf55.19.103
>     Stream #0:0(und): Video: theora (libtheora), yuv420p, 1200x672, q=2-31, 200 kb/s, 10 tbn, 10 tbc (default)
>     Metadata:
>       handler_name    : VideoHandler
>       major_brand     : isom
>       minor_version   : 512
>       compatible_brands: isomiso2avc1mp41
>       encoder         : Lavf55.19.103
>     Stream #0:1(und): Audio: vorbis (libvorbis), 22050 Hz, mono, fltp (default)
>     Metadata:
>       handler_name    : SoundHandler
>       major_brand     : isom
>       minor_version   : 512
>       compatible_brands: isomiso2avc1mp41
>       encoder         : Lavf55.19.103
> Stream mapping:
>   Stream #0:0 -> #0:0 (h264 -> libtheora)
>   Stream #0:1 -> #0:1 (aac -> libvorbis)
> Press [q] to stop, [?] for help
> frame=   14 fps=0.0 q=0.0 size=      18kB time=00:00:02.08 bitrate=  72.4kbits/s dup=1 drop=0    
> frame=   28 fps= 27 q=0.0 size=      48kB time=00:00:03.48 bitrate= 112.7kbits/s dup=1 drop=0    
> frame=   40 fps= 26 q=0.0 size=      79kB time=00:00:04.68 bitrate= 137.8kbits/s dup=1 drop=0    
> frame=   53 fps= 26 q=0.0 size=     111kB time=00:00:05.98 bitrate= 151.4kbits/s dup=1 drop=0    
> frame=   66 fps= 25 q=0.0 size=     144kB time=00:00:07.28 bitrate= 162.1kbits/s dup=1 drop=0    
> frame=   79 fps= 25 q=0.0 size=     176kB time=00:00:08.58 bitrate= 168.1kbits/s dup=1 drop=0    
> frame=   92 fps= 25 q=0.0 size=     208kB time=00:00:09.88 bitrate= 172.5kbits/s dup=1 drop=0    
> frame=  105 fps= 25 q=0.0 size=     242kB time=00:00:11.18 bitrate= 176.8kbits/s dup=1 drop=0    
> frame=  118 fps= 25 q=0.0 size=     274kB time=00:00:12.48 bitrate= 179.5kbits/s dup=1 drop=0    
> frame=  133 fps= 25 q=0.0 size=     334kB time=00:00:13.97 bitrate= 195.8kbits/s dup=1 drop=0    
> frame=  148 fps= 26 q=0.0 size=     364kB time=00:00:15.46 bitrate= 192.8kbits/s dup=1 drop=0    
> frame=  163 fps= 26 q=0.0 size=     394kB time=00:00:16.94 bitrate= 190.6kbits/s dup=1 drop=0    
> frame=  178 fps= 26 q=0.0 size=     425kB time=00:00:18.48 bitrate= 188.4kbits/s dup=1 drop=0    
> frame=  193 fps= 27 q=0.0 size=     484kB time=00:00:19.96 bitrate= 198.5kbits/s dup=1 drop=0    
> frame=  208 fps= 27 q=0.0 size=     514kB time=00:00:21.45 bitrate= 196.4kbits/s dup=1 drop=0    
> frame=  223 fps= 27 q=0.0 size=     544kB time=00:00:22.98 bitrate= 193.8kbits/s dup=1 drop=0    
> frame=  238 fps= 27 q=0.0 size=     574kB time=00:00:24.47 bitrate= 192.0kbits/s dup=1 drop=0    
> frame=  253 fps= 27 q=0.0 size=     632kB time=00:00:25.95 bitrate= 199.5kbits/s dup=1 drop=0    
> frame=  268 fps= 27 q=0.0 size=     663kB time=00:00:27.48 bitrate= 197.5kbits/s dup=1 drop=0    
> frame=  283 fps= 27 q=0.0 size=     693kB time=00:00:28.97 bitrate= 195.8kbits/s dup=1 drop=0    
> frame=  298 fps= 27 q=0.0 size=     722kB time=00:00:30.46 bitrate= 194.1kbits/s dup=1 drop=0    
> frame=  313 fps= 28 q=0.0 size=     780kB time=00:00:31.94 bitrate= 199.9kbits/s dup=1 drop=0    
> frame=  328 fps= 28 q=0.0 size=     812kB time=00:00:33.48 bitrate= 198.6kbits/s dup=1 drop=0    
> frame=  336 fps= 28 q=0.0 Lsize=     853kB time=00:00:35.33 bitrate= 197.8kbits/s dup=1 drop=0    
> video:837kB audio:1kB subtitle:0 global headers:7kB muxing overhead 1.003880%
> exitValue: null
> out: 



--
This message was sent by Atlassian JIRA
(v6.2#6252)

Mime
View raw message